Rape Board - Free rape pictures and videos - Go To Main Page
Message board for people who wish to roleplay and discuss rape fantasies.

Real Time Bondage

Welcome to the Rape Board - Free rape pictures and videos.
If this is your first visit, be sure to check out the FAQ by clicking the link above. You may have to register before you can post: click the register link above to proceed. To start viewing messages, select the forum that you want to visit from the selection below.


Go Back   Rape Board - Free rape pictures and videos > Rape Movies > Rape pics and movies
Rape gallery Incest gallery Bestiality gallery Gay sex gallery Anime gallery Scat gallery

Reply
 
Thread Tools Display Modes
Old 10-09-2013, 01:06 PM   #21
mukundi
Privileged Member
 
Join Date: Feb 2012
Posts: 136
Reputation: 1804
mukundi has a maximum reputation! (1000+)mukundi has a maximum reputation! (1000+)mukundi has a maximum reputation! (1000+)mukundi has a maximum reputation! (1000+)mukundi has a maximum reputation! (1000+)mukundi has a maximum reputation! (1000+)mukundi has a maximum reputation! (1000+)mukundi has a maximum reputation! (1000+)mukundi has a maximum reputation! (1000+)mukundi has a maximum reputation! (1000+)mukundi has a maximum reputation! (1000+)
Wink Kidnapping & Extremely Brutal Rape, Abuse, Torture & Assault By 2 Russian Gang Member

Kidnapping & Extremely Brutal Rape, Abuse, Torture & Assault By 2 Russian Gang Members



General
Complete name : Brutal.wmv
Format : Windows Media
File size : 396 MiB
Duration : 30mn 48s
Overall bit rate mode : Variable
Overall bit rate : 1 798 Kbps
Maximum Overall bit rate : 2 476 Kbps
Encoded date : UTC 2008-09-24 11:09:23.812
Application : Windows Movie Maker 2.1.4026.0

Video
ID : 2
Format : VC-1
Format profile : MP@ML
Codec ID : WMV3
Codec ID/Info : Windows Media Video 9
Codec ID/Hint : WMV3
Description of the codec : Windows Media Video 9
Duration : 30mn 48s
Bit rate mode : Variable
Bit rate : 1 630 Kbps
Width : 720 pixels
Height : 576 pixels
Display aspect ratio : 5:4
Frame rate : 25.000 fps
Standard : PAL
Bit depth : 8 bits
Scan type : Progressive
Compression mode : Lossy
Bits/(Pixel*Frame) : 0.157
Stream size : 359 MiB (91%)

Audio
ID : 1
Format : WMA
Format version : Version 2
Codec ID : 161
Codec ID/Info : Windows Media Audio
Description of the codec : Windows Media Audio 9.1 - VBR Quality 75, 44 kHz, stereo 1-pass VBR
Duration : 30mn 48s
Bit rate mode : Variable
Bit rate : 150 Kbps
Channel(s) : 2 channels
Sampling rate : 44.1 KHz
Bit depth : 16 bits
Stream size : 33.1 MiB (8%)

Download Link:

Quote:
Bru-Rap.rar


Have Fun

Last edited by mukundi; 02-05-2014 at 05:37 PM.
mukundi is offline   Reply With Quote
Old 10-10-2013, 08:30 AM   #22
mukundi
Privileged Member
 
Join Date: Feb 2012
Posts: 136
Reputation: 1804
mukundi has a maximum reputation! (1000+)mukundi has a maximum reputation! (1000+)mukundi has a maximum reputation! (1000+)mukundi has a maximum reputation! (1000+)mukundi has a maximum reputation! (1000+)mukundi has a maximum reputation! (1000+)mukundi has a maximum reputation! (1000+)mukundi has a maximum reputation! (1000+)mukundi has a maximum reputation! (1000+)mukundi has a maximum reputation! (1000+)mukundi has a maximum reputation! (1000+)
Wink Red Headed Bride Brutally Raped Before Her Marriage

Red Headed Bride Brutally Raped Before Her Marriage



General
Complete name : Bride.wmv
Format : Windows Media
File size : 177 MiB
Duration : 18mn 39s
Overall bit rate mode : Variable
Overall bit rate : 1 326 Kbps
Maximum Overall bit rate : 1 980 Kbps
Encoded date : UTC 2006-12-29 00:20:55.312

Video
ID : 2
Format : VC-1
Format profile : MP@ML
Codec ID : WMV3
Codec ID/Info : Windows Media Video 9
Codec ID/Hint : WMV3
Description of the codec : Windows Media Video 9 - Professional
Duration : 18mn 39s
Bit rate mode : Variable
Bit rate : 1 200 Kbps
Width : 640 pixels
Height : 480 pixels
Display aspect ratio : 4:3
Frame rate : 25.000 fps
Bit depth : 8 bits
Scan type : Progressive
Compression mode : Lossy
Bits/(Pixel*Frame) : 0.156
Stream size : 160 MiB (91%)
Language : English (US)

Audio
ID : 1
Format : WMA
Format version : Version 2
Codec ID : 161
Codec ID/Info : Windows Media Audio
Description of the codec : Windows Media Audio 9 - 128 kbps, 44 kHz, stereo 2-pass VBR
Duration : 18mn 39s
Bit rate mode : Variable
Bit rate : 128 Kbps
Channel(s) : 2 channels
Sampling rate : 44.1 KHz
Bit depth : 16 bits
Stream size : 17.1 MiB (10%)
Language : English (US)

Download Link:

Quote:
Bride.rar


Have Fun

Last edited by mukundi; 02-05-2014 at 05:38 PM.
mukundi is offline   Reply With Quote
Old 10-11-2013, 07:00 PM   #23
mukundi
Privileged Member
 
Join Date: Feb 2012
Posts: 136
Reputation: 1804
mukundi has a maximum reputation! (1000+)mukundi has a maximum reputation! (1000+)mukundi has a maximum reputation! (1000+)mukundi has a maximum reputation! (1000+)mukundi has a maximum reputation! (1000+)mukundi has a maximum reputation! (1000+)mukundi has a maximum reputation! (1000+)mukundi has a maximum reputation! (1000+)mukundi has a maximum reputation! (1000+)mukundi has a maximum reputation! (1000+)mukundi has a maximum reputation! (1000+)
Wink Brazilian Young Babes Brutally Forced Raped

Brazilian Young Babes Brutally Forced Raped



General
Complete name : Brazilian.avi
Format : AVI
Format/Info : Audio Video Interleave
File size : 699 MiB
Duration : 1h 53mn
Overall bit rate : 858 Kbps
Writing library : VirtualDub build 0/release

Video
ID : 0
Format : MPEG-4 Visual
Format profile : Advanced Simple@L5
Format settings, BVOP : 1
Format settings, QPel : No
Format settings, GMC : No warppoints
Format settings, Matrix : Default (H.263)
Muxing mode : Packed bitstream
Codec ID : XVID
Codec ID/Hint : XviD
Duration : 1h 53mn
Bit rate : 750 Kbps
Width : 512 pixels
Height : 384 pixels
Display aspect ratio : 4:3
Frame rate : 29.970 fps
Color space : YUV
Chroma subsampling : 4:2:0
Bit depth : 8 bits
Scan type : Progressive
Compression mode : Lossy
Bits/(Pixel*Frame) : 0.127
Stream size : 612 MiB (87%)
Writing library : XviD 1.1.0 (UTC 2005-11-22)

Audio
ID : 1
Format : MPEG Audio
Format version : Version 1
Format profile : Layer 3
Mode : Joint stereo
Mode extension : MS Stereo
Codec ID : 55
Codec ID/Hint : MP3
Duration : 1h 53mn
Bit rate mode : Constant
Bit rate : 96.0 Kbps
Channel(s) : 2 channels
Sampling rate : 48.0 KHz
Compression mode : Lossy
Stream size : 78.2 MiB (11%)
Alignment : Aligned on interleaves
Interleave, duration : 33 ms (1.00 video frame)
Interleave, preload duration : 480 ms
Writing library : LAME3.97b
Encoding settings : -m j -V 4 -q 2 -lowpass 16 -b 96

Download Link:



Have Fun

Last edited by mukundi; 02-05-2014 at 05:39 PM.
mukundi is offline   Reply With Quote
Old 10-13-2013, 02:18 AM   #24
mukundi
Privileged Member
 
Join Date: Feb 2012
Posts: 136
Reputation: 1804
mukundi has a maximum reputation! (1000+)mukundi has a maximum reputation! (1000+)mukundi has a maximum reputation! (1000+)mukundi has a maximum reputation! (1000+)mukundi has a maximum reputation! (1000+)mukundi has a maximum reputation! (1000+)mukundi has a maximum reputation! (1000+)mukundi has a maximum reputation! (1000+)mukundi has a maximum reputation! (1000+)mukundi has a maximum reputation! (1000+)mukundi has a maximum reputation! (1000+)
Wink Slave Trade: Abduction & Brutal Rape, Assault & Torture - Extreme Humiliation & Abuse

Slave Trade: Abduction & Brutal Rape, Assault & Torture - Extreme Humiliation & Abuse of Blonde



General
Complete name : Force.wmv
Format : Windows Media
File size : 662 MiB
Duration : 1h 26mn
Overall bit rate mode : Constant
Overall bit rate : 1 077 Kbps
Maximum Overall bit rate : 1 255 Kbps
Encoded date : UTC 2011-07-09 08:52:59.625
DeviceConformanceTemplate : MP@ML
Genre : Rape, Deepthroat, slave, Brutal, Forced
Cast : Marie Madison, Mark Audess, David Hurley, Sydney Clark
Description : From the creators of the controversial hit European series "The Agency" comes the darkest and hardest forced play fantasy yet! A tale told from the perspective of a sex slave held in captivity and forced to perform the most vile and degrading sex acts, "Slave Trade" brings fetish super star Marie Madison into the deepest corners of her disturbed mind with a fantasy so real, you'll find yourself in a nightmare you won't forget for some time! You'll see hard and degrading mouth fucking, spanking and bondage, ass eating, toilet play, forced orgasms and so much more!

Video
ID : 2
Format : VC-1
Format profile : MP
Codec ID : WMV3
Codec ID/Info : Windows Media Video 9
Codec ID/Hint : WMV3
Description of the codec : VC-1 - VC-1 Simple/Main Profile
Duration : 1h 26mn
Bit rate mode : Constant
Bit rate : 1 177 Kbps
Width : 720 pixels
Height : 480 pixels
Display aspect ratio : 3:2
Frame rate : 29.970 fps
Standard : NTSC
Bit depth : 8 bits
Scan type : Progressive
Compression mode : Lossy
Bits/(Pixel*Frame) : 0.114
Stream size : 724 MiB
Language : English (US)

Audio
ID : 1
Format : WMA
Format version : Version 2
Codec ID : 161
Codec ID/Info : Windows Media Audio
Duration : 1h 26mn
Bit rate mode : Constant
Bit rate : 64.0 Kbps
Channel(s) : 2 channels
Sampling rate : 48.0 KHz
Bit depth : 16 bits
Stream size : 39.4 MiB (6%)
Language : English (US)

Download Link:



Have Fun

Last edited by mukundi; 02-05-2014 at 05:42 PM.
mukundi is offline   Reply With Quote
Old 10-13-2013, 05:30 PM   #25
mukundi
Privileged Member
 
Join Date: Feb 2012
Posts: 136
Reputation: 1804
mukundi has a maximum reputation! (1000+)mukundi has a maximum reputation! (1000+)mukundi has a maximum reputation! (1000+)mukundi has a maximum reputation! (1000+)mukundi has a maximum reputation! (1000+)mukundi has a maximum reputation! (1000+)mukundi has a maximum reputation! (1000+)mukundi has a maximum reputation! (1000+)mukundi has a maximum reputation! (1000+)mukundi has a maximum reputation! (1000+)mukundi has a maximum reputation! (1000+)
Wink Blonde Babe Attacked & Extreme Tortured, Extreme Force Rape

Blonde Babe Attacked & Extreme Tortured, Extreme Force Rape



General
Complete name : Attacked.avi
Format : AVI
Format/Info : Audio Video Interleave
File size : 165 MiB
Duration : 31mn 24s
Overall bit rate : 733 Kbps
Writing application : Lavf52.20.0

Video
ID : 0
Format : xvid
Codec ID : xvid
Duration : 31mn 24s
Bit rate : 401 Kbps
Width : 528 pixels
Height : 400 pixels
Display aspect ratio : 4:3
Frame rate : 25.000 fps
Bits/(Pixel*Frame) : 0.076
Stream size : 90.0 MiB (55%)

Audio
ID : 1
Format : MPEG Audio
Format version : Version 1
Format profile : Layer 3
Mode : Joint stereo
Mode extension : MS Stereo
Codec ID : 55
Codec ID/Hint : MP3
Duration : 31mn 24s
Bit rate mode : Constant
Bit rate : 320 Kbps
Channel(s) : 2 channels
Sampling rate : 44.1 KHz
Compression mode : Lossy
Stream size : 71.9 MiB (44%)
Alignment : Aligned on interleaves
Interleave, duration : 26 ms (0.65 video frame)
Writing library : LAME3.98

Download Link:

Quote:
Attack.rar


Have Fun

Last edited by mukundi; 02-05-2014 at 05:42 PM.
mukundi is offline   Reply With Quote
Old 10-14-2013, 07:26 AM   #26
mukundi
Privileged Member
 
Join Date: Feb 2012
Posts: 136
Reputation: 1804
mukundi has a maximum reputation! (1000+)mukundi has a maximum reputation! (1000+)mukundi has a maximum reputation! (1000+)mukundi has a maximum reputation! (1000+)mukundi has a maximum reputation! (1000+)mukundi has a maximum reputation! (1000+)mukundi has a maximum reputation! (1000+)mukundi has a maximum reputation! (1000+)mukundi has a maximum reputation! (1000+)mukundi has a maximum reputation! (1000+)mukundi has a maximum reputation! (1000+)
Wink Couple Abducted & Brutally Force Raped, Extremely Beautiful Teen

Couple Abducted & Brutally Force Raped, Extremely Beautiful Teen



General
Complete name : Couple.avi
Format : AVI
Format/Info : Audio Video Interleave
File size : 144 MiB
Duration : 24mn 11s
Overall bit rate : 832 Kbps
Writing library : VirtualDub build 18160/release

Video
ID : 0
Format : MPEG-4 Visual
Format settings, BVOP : 1
Format settings, QPel : No
Format settings, GMC : No warppoints
Format settings, Matrix : Default (H.263)
Muxing mode : Packed bitstream
Codec ID : DX50
Codec ID/Hint : DivX 5
Duration : 24mn 11s
Bit rate : 724 Kbps
Width : 512 pixels
Height : 368 pixels
Display aspect ratio : 1.391
Frame rate : 29.970 fps
Color space : YUV
Chroma subsampling : 4:2:0
Bit depth : 8 bits
Scan type : Progressive
Compression mode : Lossy
Bits/(Pixel*Frame) : 0.128
Stream size : 125 MiB (87%)
Writing library : DivX 5.1.1 (Maupiti) (UTC 2003-11-19)

Audio
ID : 1
Format : MPEG Audio
Format version : Version 1
Format profile : Layer 3
Codec ID : 55
Codec ID/Hint : MP3
Duration : 24mn 11s
Bit rate mode : Constant
Bit rate : 96.0 Kbps
Channel(s) : 2 channels
Sampling rate : 44.1 KHz
Compression mode : Lossy
Stream size : 16.6 MiB (12%)
Alignment : Split accross interleaves
Interleave, duration : 33 ms (1.00 video frame)
Interleave, preload duration : 500 ms

Download Link:

Quote:
Couple.rar


Have Fun

Last edited by mukundi; 02-05-2014 at 05:51 PM.
mukundi is offline   Reply With Quote
Old 10-16-2013, 05:57 AM   #27
mukundi
Privileged Member
 
Join Date: Feb 2012
Posts: 136
Reputation: 1804
mukundi has a maximum reputation! (1000+)mukundi has a maximum reputation! (1000+)mukundi has a maximum reputation! (1000+)mukundi has a maximum reputation! (1000+)mukundi has a maximum reputation! (1000+)mukundi has a maximum reputation! (1000+)mukundi has a maximum reputation! (1000+)mukundi has a maximum reputation! (1000+)mukundi has a maximum reputation! (1000+)mukundi has a maximum reputation! (1000+)mukundi has a maximum reputation! (1000+)
Wink Two Lesbians Brutally Raped By Two Guys - Extreme Abuse & Assault

Two Lesbians Brutally Raped By Two Guys - Extreme Abuse & Assault



General
Complete name : Extreme.wmv
Format : Windows Media
File size : 210 MiB
Duration : 40mn 17s
Overall bit rate mode : Constant
Overall bit rate : 729 Kbps
Maximum Overall bit rate : 729 Kbps
Encoded date : UTC 2007-12-24 16:46:34.828

Video
ID : 2
Format : VC-1
Format profile : MP
Codec ID : WMV3
Codec ID/Info : Windows Media Video 9
Codec ID/Hint : WMV3
Description of the codec : Windows Media Video 9
Duration : 40mn 17s
Bit rate mode : Constant
Bit rate : 700 Kbps
Width : 320 pixels
Height : 240 pixels
Display aspect ratio : 4:3
Frame rate : 29.970 fps
Bit depth : 8 bits
Scan type : Progressive
Compression mode : Lossy
Bits/(Pixel*Frame) : 0.304
Stream size : 202 MiB (96%)
Language : English

Audio
ID : 1
Format : WMA
Format version : Version 2
Codec ID : 161
Codec ID/Info : Windows Media Audio
Description of the codec : Windows Media Audio 9.1 - 20 kbps, 32 kHz, mono 1-pass CBR
Duration : 40mn 17s
Bit rate mode : Constant
Bit rate : 20.0 Kbps
Channel(s) : 1 channel
Sampling rate : 32.0 KHz
Bit depth : 16 bits
Stream size : 5.76 MiB (3%)
Language : English

Download Link:

Quote:
Extreme.rar


Have Fun

Last edited by mukundi; 02-05-2014 at 05:52 PM.
mukundi is offline   Reply With Quote
Old 11-09-2013, 08:23 AM   #28
mukundi
Privileged Member
 
Join Date: Feb 2012
Posts: 136
Reputation: 1804
mukundi has a maximum reputation! (1000+)mukundi has a maximum reputation! (1000+)mukundi has a maximum reputation! (1000+)mukundi has a maximum reputation! (1000+)mukundi has a maximum reputation! (1000+)mukundi has a maximum reputation! (1000+)mukundi has a maximum reputation! (1000+)mukundi has a maximum reputation! (1000+)mukundi has a maximum reputation! (1000+)mukundi has a maximum reputation! (1000+)mukundi has a maximum reputation! (1000+)
Wink Brutal Rape Of Beautiful Babes, Extreme Abuse & Assault

Brutal Rape Of Beautiful Babes, Extreme Abuse & Assault



General
Complete name : Force.avi
Format : AVI
Format/Info : Audio Video Interleave
File size : 707 MiB
Duration : 2h 8mn
Overall bit rate : 767 Kbps
Writing application : Nandub v1.0rc2
Writing library : VirtualDub build 31536/release

Video
ID : 0
Format : MPEG-4 Visual
Format profile : Advanced Simple@L5
Format settings, BVOP : 2
Format settings, QPel : No
Format settings, GMC : No warppoints
Format settings, Matrix : Default (H.263)
Muxing mode : Packed bitstream
Codec ID : XVID
Codec ID/Hint : XviD
Duration : 2h 8mn
Bit rate : 733 Kbps
Width : 512 pixels
Height : 384 pixels
Display aspect ratio : 4:3
Frame rate : 25.000 fps
Color space : YUV
Chroma subsampling : 4:2:0
Bit depth : 8 bits
Scan type : Progressive
Compression mode : Lossy
Bits/(Pixel*Frame) : 0.149
Stream size : 676 MiB (96%)
Writing library : XviD 1.2.1 (UTC 2008-12-04)

Audio
ID : 1
Format : MPEG Audio
Format version : Version 2
Format profile : Layer 3
Codec ID : 55
Codec ID/Hint : MP3
Duration : 2h 8mn
Bit rate mode : Constant
Bit rate : 24.0 Kbps
Channel(s) : 1 channel
Sampling rate : 24.0 KHz
Compression mode : Lossy
Stream size : 22.1 MiB (3%)
Alignment : Split accross interleaves
Interleave, duration : 40 ms (1.00 video frame)
Interleave, preload duration : 500 ms

Download Link:



Have Fun

Last edited by mukundi; 02-05-2014 at 05:52 PM.
mukundi is offline   Reply With Quote
Old 11-12-2013, 07:46 AM   #29
mukundi
Privileged Member
 
Join Date: Feb 2012
Posts: 136
Reputation: 1804
mukundi has a maximum reputation! (1000+)mukundi has a maximum reputation! (1000+)mukundi has a maximum reputation! (1000+)mukundi has a maximum reputation! (1000+)mukundi has a maximum reputation! (1000+)mukundi has a maximum reputation! (1000+)mukundi has a maximum reputation! (1000+)mukundi has a maximum reputation! (1000+)mukundi has a maximum reputation! (1000+)mukundi has a maximum reputation! (1000+)mukundi has a maximum reputation! (1000+)
Wink Beautiful Lesbians Brutally Raped Beside City Streets

Beautiful Lesbians Brutally Raped Beside City Streets



General
Complete name : City Streets
Format : Windows Media
File size : 612 MiB
Duration : 18mn 22s
Overall bit rate : 4 658 Kbps
Maximum Overall bit rate : 4 480 Kbps
Encoded date : UTC 1970-01-01 00:00:00.000
WM/EncodingSettings : Lavf52.85.0

Video
ID : 1
Format : WMV2
Codec ID : WMV2
Codec ID/Info : Windows Media Video 8
Description of the codec : wmv2
Duration : 18mn 22s
Bit rate : 3 984 Kbps
Width : 720 pixels
Height : 480 pixels
Display aspect ratio : 3:2
Frame rate : 30.000 fps
Standard : NTSC
Bit depth : 8 bits
Bits/(Pixel*Frame) : 0.384
Stream size : 524 MiB (86%)

Audio
ID : 2
Format : WMA
Format version : Version 2
Codec ID : 161
Codec ID/Info : Windows Media Audio
Description of the codec : Windows Media Audio V8
Duration : 18mn 22s
Bit rate : 480 Kbps
Channel(s) : 2 channels
Sampling rate : 48.0 KHz
Bit depth : 16 bits
Stream size : 63.1 MiB (10%)

Download Link:



Have Fun

Last edited by mukundi; 02-05-2014 at 05:53 PM.
mukundi is offline   Reply With Quote
Old 11-12-2013, 02:22 PM   #30
mukundi
Privileged Member
 
Join Date: Feb 2012
Posts: 136
Reputation: 1804
mukundi has a maximum reputation! (1000+)mukundi has a maximum reputation! (1000+)mukundi has a maximum reputation! (1000+)mukundi has a maximum reputation! (1000+)mukundi has a maximum reputation! (1000+)mukundi has a maximum reputation! (1000+)mukundi has a maximum reputation! (1000+)mukundi has a maximum reputation! (1000+)mukundi has a maximum reputation! (1000+)mukundi has a maximum reputation! (1000+)mukundi has a maximum reputation! (1000+)
Wink Shameless Whore Kidnapped & Tortured - Extreme Abuse

Shameless Whore Kidnapped & Tortured - Extreme Abuse



General
Complete name : Kidnaping.wmv
Format : Windows Media
File size : 784 MiB
Duration : 46mn 21s
Overall bit rate mode : Constant
Overall bit rate : 2 365 Kbps
Maximum Overall bit rate : 2 386 Kbps
Encoded date : UTC 2009-07-12 23:26:41.453

Video
ID : 2
Format : VC-1
Format profile : MP@HL
Codec ID : WMV3
Codec ID/Info : Windows Media Video 9
Codec ID/Hint : WMV3
Description of the codec : Windows Media Video 9 - Professional
Duration : 46mn 21s
Bit rate mode : Constant
Bit rate : 2 300 Kbps
Width : 768 pixels
Height : 432 pixels
Display aspect ratio : 16:9
Frame rate : 29.970 fps
Bit depth : 8 bits
Scan type : Progressive
Compression mode : Lossy
Bits/(Pixel*Frame) : 0.231
Stream size : 763 MiB (97%)
Language : English (US)

Audio
ID : 1
Format : WMA
Format version : Version 2
Codec ID : 161
Codec ID/Info : Windows Media Audio
Description of the codec : Windows Media Audio 9 - 64 kbps, 44 kHz, stereo (A/V) 1-pass CBR
Duration : 46mn 21s
Bit rate mode : Constant
Bit rate : 64.0 Kbps
Channel(s) : 2 channels
Sampling rate : 44.1 KHz
Bit depth : 16 bits
Stream size : 21.2 MiB (3%)
Language : English (US)

Download Link:



Have Fun

Last edited by mukundi; 02-05-2014 at 05:53 PM.
mukundi is offline   Reply With Quote
Old 11-13-2013, 02:57 AM   #31
mukundi
Privileged Member
 
Join Date: Feb 2012
Posts: 136
Reputation: 1804
mukundi has a maximum reputation! (1000+)mukundi has a maximum reputation! (1000+)mukundi has a maximum reputation! (1000+)mukundi has a maximum reputation! (1000+)mukundi has a maximum reputation! (1000+)mukundi has a maximum reputation! (1000+)mukundi has a maximum reputation! (1000+)mukundi has a maximum reputation! (1000+)mukundi has a maximum reputation! (1000+)mukundi has a maximum reputation! (1000+)mukundi has a maximum reputation! (1000+)
Wink Ripped Up Of A Beautiful Girl, Extreme Rape

Ripped Up Of A Beautiful Girl, Extreme Rape



General
Complete name : Extreme.wmv
Format : Windows Media
File size : 625 MiB
Duration : 28mn 51s
Overall bit rate mode : Constant
Overall bit rate : 3 027 Kbps
Maximum Overall bit rate : 3 074 Kbps
Encoded date : UTC 2010-01-26 19:56:10.928

Video
ID : 2
Format : WMV2
Codec ID : WMV2
Codec ID/Info : Windows Media Video 8
Description of the codec : Windows Media Video V8
Duration : 28mn 51s
Bit rate mode : Constant
Bit rate : 3 000 Kbps
Width : 900 pixels
Height : 488 pixels
Display aspect ratio : 16:9
Frame rate : 25.000 fps
Bit depth : 8 bits
Bits/(Pixel*Frame) : 0.273
Stream size : 619 MiB (99%)

Audio
ID : 1
Format : WMA
Format version : Version 2
Codec ID : 161
Codec ID/Info : Windows Media Audio
Description of the codec : Windows Media Audio 9.2 - 48 kbps, 44 kHz, stereo 1-pass CBR
Duration : 28mn 51s
Bit rate mode : Constant
Bit rate : 48.0 Kbps
Channel(s) : 2 channels
Sampling rate : 44.1 KHz
Bit depth : 16 bits
Stream size : 9.91 MiB (2%)

Download Link:



Have Fun

Last edited by mukundi; 02-05-2014 at 06:04 PM.
mukundi is offline   Reply With Quote
Old 11-13-2013, 11:49 AM   #32
mukundi
Privileged Member
 
Join Date: Feb 2012
Posts: 136
Reputation: 1804
mukundi has a maximum reputation! (1000+)mukundi has a maximum reputation! (1000+)mukundi has a maximum reputation! (1000+)mukundi has a maximum reputation! (1000+)mukundi has a maximum reputation! (1000+)mukundi has a maximum reputation! (1000+)mukundi has a maximum reputation! (1000+)mukundi has a maximum reputation! (1000+)mukundi has a maximum reputation! (1000+)mukundi has a maximum reputation! (1000+)mukundi has a maximum reputation! (1000+)
Wink Amazing Blonde Kidnapped & Raped By So Called Ritualers - Totally Classic

Amazing Blonde Kidnapped & Raped By So Called Ritualers - Totally Classic



General
Complete name : rituals2rape.wmv
Format : Windows Media
File size : 520 MiB
Duration : 57mn 16s
Overall bit rate mode : Constant
Overall bit rate : 1 270 Kbps
Maximum Overall bit rate : 1 278 Kbps
Encoded date : UTC 2005-06-13 20:59:03.569

Video
ID : 2
Format : MPEG-4 Visual
Codec ID : MP43
Codec ID/Info : Microsoft MPEG-4 v3 (pre-standard)
Codec ID/Hint : Microsoft
Description of the codec : Windows Media MPEG-4 Video V3
Duration : 57mn 16s
Bit rate mode : Constant
Bit rate : 1 200 Kbps
Width : 720 pixels
Height : 480 pixels
Display aspect ratio : 3:2
Frame rate : 29.970 fps
Standard : NTSC
Bit depth : 8 bits
Compression mode : Lossy
Bits/(Pixel*Frame) : 0.116
Stream size : 492 MiB (95%)

Audio
ID : 1
Format : WMA
Format version : Version 2
Codec ID : 161
Codec ID/Info : Windows Media Audio
Description of the codec : Windows Media Audio 9.1 - 64 kbps, 44 kHz, stereo (A/V) 1-pass CBR
Duration : 57mn 16s
Bit rate mode : Constant
Bit rate : 64.0 Kbps
Channel(s) : 2 channels
Sampling rate : 44.1 KHz
Bit depth : 16 bits
Stream size : 26.2 MiB (5%)

Download Link:



Have Fun

Last edited by mukundi; 02-05-2014 at 06:05 PM.
mukundi is offline   Reply With Quote
Old 11-14-2013, 07:59 AM   #33
mukundi
Privileged Member
 
Join Date: Feb 2012
Posts: 136
Reputation: 1804
mukundi has a maximum reputation! (1000+)mukundi has a maximum reputation! (1000+)mukundi has a maximum reputation! (1000+)mukundi has a maximum reputation! (1000+)mukundi has a maximum reputation! (1000+)mukundi has a maximum reputation! (1000+)mukundi has a maximum reputation! (1000+)mukundi has a maximum reputation! (1000+)mukundi has a maximum reputation! (1000+)mukundi has a maximum reputation! (1000+)mukundi has a maximum reputation! (1000+)
Wink Home Invasion of A Amazing Lady, Raped & Strangled Her Brutally (NEW)

Home Invasion of A Amazing Lady, Raped & Strangled Her Brutally (NEW) - Snuff Video



General
Complete name : Home Invasion.mp4
Format : MPEG-4
Format profile : Base Media / Version 2
Codec ID : mp42
File size : 287 MiB
Duration : 19mn 50s
Overall bit rate : 2 021 Kbps
Encoded date : UTC 2012-02-25 21:06:04
Tagged date : UTC 2012-02-25 21:06:45

Video
ID : 1
Format : AVC
Format/Info : Advanced Video Codec
Format profile : Baseline@L3.0
Format settings, CABAC : No
Format settings, ReFrames : 2 frames
Format settings, GOP : M=1, N=30
Codec ID : avc1
Codec ID/Info : Advanced Video Coding
Duration : 19mn 50s
Bit rate : 1 799 Kbps
Width : 720 pixels
Height : 405 pixels
Original height : 406 pixels
Display aspect ratio : 16:9
Frame rate mode : Constant
Frame rate : 25.000 fps
Color space : YUV
Chroma subsampling : 4:2:0
Bit depth : 8 bits
Scan type : Progressive
Bits/(Pixel*Frame) : 0.247
Stream size : 255 MiB (89%)
Language : English
Encoded date : UTC 2012-02-25 21:05:44
Tagged date : UTC 2012-02-25 21:06:45
Color primaries : BT.601-6 525, BT.1358 525, BT.1700 NTSC, SMPTE 170M
Transfer characteristics : BT.709-5, BT.1361
Matrix coefficients : BT.601-6 525, BT.1358 525, BT.1700 NTSC, SMPTE 170M

Audio
ID : 2
Format : AAC
Format/Info : Advanced Audio Codec
Format profile : LC
Codec ID : 40
Duration : 19mn 50s
Source duration : 19mn 50s
Bit rate mode : Constant
Bit rate : 128 Kbps
Channel(s) : 2 channels
Channel positions : Front: L R
Sampling rate : 44.1 KHz
Compression mode : Lossy
Stream size : 18.1 MiB (6%)
Source stream size : 18.1 MiB
Language : English
Encoded date : UTC 2012-02-25 21:05:44
Tagged date : UTC 2012-02-25 21:06:45

Download Link:

Quote:
H.I.rar


Have Fun

Last edited by mukundi; 02-05-2014 at 06:05 PM.
mukundi is offline   Reply With Quote
Old 11-15-2013, 06:55 AM   #34
mukundi
Privileged Member
 
Join Date: Feb 2012
Posts: 136
Reputation: 1804
mukundi has a maximum reputation! (1000+)mukundi has a maximum reputation! (1000+)mukundi has a maximum reputation! (1000+)mukundi has a maximum reputation! (1000+)mukundi has a maximum reputation! (1000+)mukundi has a maximum reputation! (1000+)mukundi has a maximum reputation! (1000+)mukundi has a maximum reputation! (1000+)mukundi has a maximum reputation! (1000+)mukundi has a maximum reputation! (1000+)mukundi has a maximum reputation! (1000+)
Wink Extreme Brutal Abuse & Humiliated - Forced Group Rape of Amazing Teens

Extreme Brutal Abuse & Humiliated - Forced Group Rape of Amazing Teens



General
Complete name : Humiliated.avi
Format : AVI
Format/Info : Audio Video Interleave
File size : 700 MiB
Duration : 1h 41mn
Overall bit rate mode : Variable
Overall bit rate : 965 Kbps
Writing application : VirtualDubMod 1.5.10.2 (build 2540/release)
Writing library : VirtualDubMod build 2540/release

Video
ID : 0
Format : MPEG-4 Visual
Format profile : Advanced Simple@L5
Format settings, BVOP : 2
Format settings, QPel : No
Format settings, GMC : No warppoints
Format settings, Matrix : Default (H.263)
Codec ID : XVID
Codec ID/Hint : XviD
Duration : 1h 41mn
Bit rate : 817 Kbps
Width : 448 pixels
Height : 336 pixels
Display aspect ratio : 4:3
Frame rate : 25.000 fps
Color space : YUV
Chroma subsampling : 4:2:0
Bit depth : 8 bits
Scan type : Progressive
Compression mode : Lossy
Bits/(Pixel*Frame) : 0.217
Stream size : 593 MiB (85%)
Writing library : XviD 1.2.1 (UTC 2008-12-04)

Audio
ID : 1
Format : MPEG Audio
Format version : Version 1
Format profile : Layer 3
Mode : Joint stereo
Mode extension : MS Stereo
Codec ID : 55
Codec ID/Hint : MP3
Duration : 1h 41mn
Bit rate mode : Variable
Bit rate : 135 Kbps
Nominal bit rate : 128 Kbps
Channel(s) : 2 channels
Sampling rate : 48.0 KHz
Compression mode : Lossy
Stream size : 98.0 MiB (14%)
Alignment : Aligned on interleaves
Interleave, duration : 24 ms (0.60 video frame)
Interleave, preload duration : 136 ms
Writing library : LAME3.90.
Encoding settings : -m j -V 4 -q 2 -lowpass 17.6 --abr 128

Download Link:



Have Fun

Last edited by mukundi; 02-05-2014 at 06:06 PM.
mukundi is offline   Reply With Quote
Old 11-15-2013, 01:34 PM   #35
mukundi
Privileged Member
 
Join Date: Feb 2012
Posts: 136
Reputation: 1804
mukundi has a maximum reputation! (1000+)mukundi has a maximum reputation! (1000+)mukundi has a maximum reputation! (1000+)mukundi has a maximum reputation! (1000+)mukundi has a maximum reputation! (1000+)mukundi has a maximum reputation! (1000+)mukundi has a maximum reputation! (1000+)mukundi has a maximum reputation! (1000+)mukundi has a maximum reputation! (1000+)mukundi has a maximum reputation! (1000+)mukundi has a maximum reputation! (1000+)
Wink Amazing Babe From Shower Ripped Up Both Anal & Pussy - Hard & Passionate Rape

Amazing Babe From Shower Ripped Up Both Anal & Pussy - Hard & Passionate Rape



General
Complete name : Amazing.wmv
Format : Windows Media
File size : 621 MiB
Duration : 42mn 3s
Overall bit rate mode : Constant
Overall bit rate : 2 066 Kbps
Maximum Overall bit rate : 2 079 Kbps
Performer : Admin
Encoded date : UTC 2009-09-14 09:13:45.108
Application : Windows Movie Maker 2.6.4037.0

Video
ID : 2
Format : VC-1
Format profile : MP@ML
Codec ID : WMV3
Codec ID/Info : Windows Media Video 9
Codec ID/Hint : WMV3
Description of the codec : Windows Media Video 9 - Professional
Duration : 42mn 3s
Bit rate mode : Constant
Bit rate : 1 900 Kbps
Width : 640 pixels
Height : 480 pixels
Display aspect ratio : 4:3
Frame rate : 25.000 fps
Bit depth : 8 bits
Scan type : Progressive
Compression mode : Lossy
Bits/(Pixel*Frame) : 0.247
Stream size : 571 MiB (92%)

Audio
ID : 1
Format : WMA
Format version : Version 2
Codec ID : 161
Codec ID/Info : Windows Media Audio
Description of the codec : Windows Media Audio 9.2 - 160 kbps, 44 kHz, stereo (A/V) 1-pass CBR
Duration : 42mn 3s
Bit rate mode : Constant
Bit rate : 160 Kbps
Channel(s) : 2 channels
Sampling rate : 44.1 KHz
Bit depth : 16 bits
Stream size : 48.1 MiB (8%)

Download Link:



Have Fun

Last edited by mukundi; 02-05-2014 at 06:07 PM.
mukundi is offline   Reply With Quote
Old 11-16-2013, 03:43 AM   #36
mukundi
Privileged Member
 
Join Date: Feb 2012
Posts: 136
Reputation: 1804
mukundi has a maximum reputation! (1000+)mukundi has a maximum reputation! (1000+)mukundi has a maximum reputation! (1000+)mukundi has a maximum reputation! (1000+)mukundi has a maximum reputation! (1000+)mukundi has a maximum reputation! (1000+)mukundi has a maximum reputation! (1000+)mukundi has a maximum reputation! (1000+)mukundi has a maximum reputation! (1000+)mukundi has a maximum reputation! (1000+)mukundi has a maximum reputation! (1000+)
Wink Beautiful Big Breast Brunette Victoria Luna With Attitude Forced & Raped Hard

Beautiful Big Breast Brunette Victoria Luna With Attitude Forced & Raped Hard



General
Complete name : Brunette.wmv
Format : Windows Media
File size : 520 MiB
Duration : 20mn 7s
Overall bit rate mode : Constant
Overall bit rate : 3 617 Kbps
Maximum Overall bit rate : 4 081 Kbps
Encoded date : UTC 2009-07-17 18:24:57.385

Video
ID : 2
Format : WMV2
Codec ID : WMV2
Codec ID/Info : Windows Media Video 8
Description of the codec : Windows Media Video V8
Duration : 20mn 7s
Bit rate mode : Constant
Bit rate : 4 000 Kbps
Width : 800 pixels
Height : 532 pixels
Display aspect ratio : 3:2
Frame rate : 24.000 fps
Bit depth : 8 bits
Bits/(Pixel*Frame) : 0.392
Stream size : 576 MiB
Language : English (US)

Audio
ID : 1
Format : WMA
Format version : Version 2
Codec ID : 161
Codec ID/Info : Windows Media Audio
Description of the codec : Windows Media Audio 9 - 48 kbps, 44 kHz, stereo 1-pass CBR
Duration : 20mn 7s
Bit rate mode : Constant
Bit rate : 48.0 Kbps
Channel(s) : 2 channels
Sampling rate : 44.1 KHz
Bit depth : 16 bits
Stream size : 6.91 MiB (1%)
Language : English (US)

Download Link:



Have Fun

Last edited by mukundi; 02-05-2014 at 06:12 PM.
mukundi is offline   Reply With Quote
Old 11-16-2013, 07:39 AM   #37
mukundi
Privileged Member
 
Join Date: Feb 2012
Posts: 136
Reputation: 1804
mukundi has a maximum reputation! (1000+)mukundi has a maximum reputation! (1000+)mukundi has a maximum reputation! (1000+)mukundi has a maximum reputation! (1000+)mukundi has a maximum reputation! (1000+)mukundi has a maximum reputation! (1000+)mukundi has a maximum reputation! (1000+)mukundi has a maximum reputation! (1000+)mukundi has a maximum reputation! (1000+)mukundi has a maximum reputation! (1000+)mukundi has a maximum reputation! (1000+)
Wink Extreme Multiple Gang Rapes Of Babe - Vintage Forced Seduction

Extreme Multiple Gang Rapes Of Babe - Vintage Forced Seduction



General
Complete name : Hooligans.avi
Format : AVI
Format/Info : Audio Video Interleave
File size : 700 MiB
Duration : 1h 32mn
Overall bit rate mode : Variable
Overall bit rate : 1 060 Kbps

Video
ID : 0
Format : MPEG-4 Visual
Format settings, BVOP : 1
Format settings, QPel : No
Format settings, GMC : No warppoints
Format settings, Matrix : Default (H.263)
Muxing mode : Packed bitstream
Codec ID : DX50
Codec ID/Hint : DivX 5
Duration : 1h 32mn
Bit rate : 951 Kbps
Width : 640 pixels
Height : 480 pixels
Display aspect ratio : 4:3
Frame rate : 25.000 fps
Color space : YUV
Chroma subsampling : 4:2:0
Bit depth : 8 bits
Scan type : Progressive
Compression mode : Lossy
Bits/(Pixel*Frame) : 0.124
Stream size : 629 MiB (90%)
Title : Video
Writing library : DivX 5.2.1 Alpha (UTC 2004-09-08)

Audio
ID : 1
Format : MPEG Audio
Format version : Version 1
Format profile : Layer 3
Mode : Joint stereo
Mode extension : MS Stereo
Codec ID : 55
Codec ID/Hint : MP3
Duration : 1h 32mn
Bit rate mode : Variable
Bit rate : 96.0 Kbps
Channel(s) : 2 channels
Sampling rate : 44.1 KHz
Compression mode : Lossy
Stream size : 63.2 MiB (9%)
Alignment : Aligned on interleaves
Interleave, duration : 26 ms (0.65 video frame)
Interleave, preload duration : 156 ms
Title : Audio
Writing library : LAME3.92

Download Link:



Have Fun

Last edited by mukundi; 02-05-2014 at 06:13 PM.
mukundi is offline   Reply With Quote
Old 11-16-2013, 10:23 AM   #38
Tasker
Junior Member
 
Join Date: Oct 2013
Posts: 4
Reputation: 97
Tasker has initial reputation
Default

Thank you!!!
Tasker is offline   Reply With Quote
Old 11-17-2013, 08:04 AM   #39
mukundi
Privileged Member
 
Join Date: Feb 2012
Posts: 136
Reputation: 1804
mukundi has a maximum reputation! (1000+)mukundi has a maximum reputation! (1000+)mukundi has a maximum reputation! (1000+)mukundi has a maximum reputation! (1000+)mukundi has a maximum reputation! (1000+)mukundi has a maximum reputation! (1000+)mukundi has a maximum reputation! (1000+)mukundi has a maximum reputation! (1000+)mukundi has a maximum reputation! (1000+)mukundi has a maximum reputation! (1000+)mukundi has a maximum reputation! (1000+)
Wink Plumber Force, Rip Up & Rape A Amazing Slim Good Looking Teen HD

Plumber Force, Rip Up & Rape A Amazing Slim Good Looking Teen HD



General
Complete name : HD.wmv
Format : Windows Media
File size : 986 MiB
Duration : 26mn 53s
Overall bit rate mode : Constant
Overall bit rate : 5 123 Kbps
Maximum Overall bit rate : 5 140 Kbps
Encoded date : UTC 2010-07-01 20:26:23.950

Video
ID : 1
Format : VC-1
Format profile : MP
Codec ID : WMV3
Codec ID/Info : Windows Media Video 9
Codec ID/Hint : WMV3
Description of the codec : Windows Media Video 9 - Professional
Duration : 26mn 53s
Bit rate mode : Constant
Bit rate : 5 000 Kbps
Width : 1 920 pixels
Height : 1 080 pixels
Display aspect ratio : 16:9
Frame rate : 50.000 fps
Bit depth : 8 bits
Scan type : Progressive
Compression mode : Lossy
Bits/(Pixel*Frame) : 0.048
Stream size : 962 MiB (98%)
NumberOfFrames : 80658

Audio
ID : 2
Format : WMA
Format version : Version 2
Codec ID : 161
Codec ID/Info : Windows Media Audio
Description of the codec : Windows Media Audio 9.2 - 96 kbps, 48 kHz, stereo 1-pass CBR
Duration : 26mn 53s
Bit rate mode : Constant
Bit rate : 96.0 Kbps
Channel(s) : 2 channels
Sampling rate : 48.0 KHz
Bit depth : 16 bits
Stream size : 18.5 MiB (2%)

Download Link:



Have Fun

Last edited by mukundi; 02-05-2014 at 06:13 PM.
mukundi is offline   Reply With Quote
Old 11-19-2013, 07:56 AM   #40
mukundi
Privileged Member
 
Join Date: Feb 2012
Posts: 136
Reputation: 1804
mukundi has a maximum reputation! (1000+)mukundi has a maximum reputation! (1000+)mukundi has a maximum reputation! (1000+)mukundi has a maximum reputation! (1000+)mukundi has a maximum reputation! (1000+)mukundi has a maximum reputation! (1000+)mukundi has a maximum reputation! (1000+)mukundi has a maximum reputation! (1000+)mukundi has a maximum reputation! (1000+)mukundi has a maximum reputation! (1000+)mukundi has a maximum reputation! (1000+)
Wink The Disgruntled - Beautiful Girl Tied & Raped Hard Enough For Unconsciousness

The Disgruntled - Beautiful Girl Tied & Raped Hard Enough For Unconsciousness - Snuff Video



General
Complete name : The Disgruntled.wmv
Format : Windows Media
File size : 748 MiB
Maximum Overall bit rate : 4 480 Kbps
Encoded date : UTC 1970-01-01 00:00:00.000
WM/EncodingSettings : Lavf52.85.0

Video
ID : 1
Format : WMV2
Codec ID : WMV2
Codec ID/Info : Windows Media Video 8
Description of the codec : wmv2
Width : 640 pixels
Height : 480 pixels
Display aspect ratio : 4:3
Bit depth : 8 bits

Audio
ID : 2
Format : WMA
Format version : Version 2
Codec ID : 161
Codec ID/Info : Windows Media Audio
Description of the codec : Windows Media Audio V8
Bit rate : 480 Kbps
Channel(s) : 2 channels
Sampling rate : 48.0 KHz
Bit depth : 16 bits

Download Link:



Have Fun

Last edited by mukundi; 02-05-2014 at 06:14 PM.
mukundi is offline   Reply With Quote
Reply

Tags
extreme, force, hard, rape, teen

Thread Tools
Display Modes

Posting Rules
You may not post new threads
You may not post replies
You may not post attachments
You may not edit your posts

BB code is On
Smilies are On
[IMG] code is On
HTML code is Off

Forum Jump


All times are GMT -4. The time now is 09:10 PM.


Powered by vBulletin® Version 3.8.7
Copyright ©2000 - 2018, Jelsoft Enterprises Ltd.
Copyright ©2003 - 2013, (c) Rapeboard.com